Ant-Man and the Wasp (2018) 1080p HDTC x264 [Dual Audio] [Hindi+English] - MW

Ant-Man and the Wasp (2018) 1080p HDTC x264 [Dual Audio] [Hindi+English] - MW





General
Format : Matroska
Format version : Version 4 / Version 2
File size : 1.69 GiB
Duration : 1 h 47 min
Overall bit rate : 2 257 kb/s

Video
ID : 1
Format : AVC
Format/Info : Advanced Video Codec
Format profile : [email protected]
Format settings : CABAC / 4 Ref Frames
Format settings, CABAC : Yes
Format settings, RefFrames : 4 frames
Codec ID : V_MPEG4/ISO/AVC
Duration : 1 h 47 min
Bit rate : 2 000 kb/s
Width : 1 920 pixels
Height : 840 pixels
Display aspect ratio : 2.25:1
Frame rate mode : Constant
Frame rate : 23.976 (24000/1001) FPS
Color space : YUV
Chroma subsampling : 4:2:0
Bit depth : 8 bits
Scan type : Progressive
Bits/(Pixel*Frame) : 0.052
Stream size : 1.50 GiB (88%)
Writing library : x264 core 155 r2901 7d0ff22
Default : Yes
Forced : No

Audio #1
ID : 2
Format : AAC
Format/Info : Advanced Audio Codec
Format profile : LC
Codec ID : A_AAC-2
Duration : 1 h 47 min
Bit rate : 128 kb/s
Channel(s) : 2 channels
Channel positions : Front: L R
Sampling rate : 48.0 kHz
Frame rate : 46.875 FPS (1024 SPF)
Compression mode : Lossy
Stream size : 98.3 MiB (6%)
Language : Hindi
Default : Yes
Forced : No

Audio #2
ID : 3
Format : AAC
Format/Info : Advanced Audio Codec
Format profile : LC
Codec ID : A_AAC-2
Duration : 1 h 47 min
Bit rate : 129 kb/s
Channel(s) : 2 channels
Channel positions : Front: L R
Sampling rate : 48.0 kHz
Frame rate : 46.875 FPS (1024 SPF)
Compression mode : Lossy
Stream size : 99.0 MiB (6%)
Language : English
Default : No
Forced : No



SINGLE DIRECT FAST LINKS

http://www.heroupload.us/20948aa1b74b918b/Ant-Man.and.the.Wasp.2018.1080p.HDTC.Dual.Audio.Hindi+English-MW.mkv


http://filefloater.com/1kyw/Ant-Man.and.the.Wasp.2018.1080p.HDTC.Dual.Audio.Hindi+English-MW.mkv



Buy Premium From My Links & Support Me
шаблоны для dle 11.2