In Darkness (2018) 1080p WEB-DL DD5.1 H264-FGT

In Darkness (2018) 1080p WEB-DL DD5.1 H264-FGT






http://imdb.com/title/tt5164184/

Video
ID                                       : 1
Format                                   : AVC
Format/Info                              : Advanced Video Codec
Format profile                           : [email protected]
Format settings                          : CABAC / 5 Ref Frames
Format settings, CABAC                   : Yes
Format settings, ReFrames                : 5 frames
Codec ID                                 : V_MPEG4/ISO/AVC
Duration                                 : 1 h 41 min
Bit rate                                 : 4 595 kb/s
Width                                    : 1 904 pixels
Height                                   : 792 pixels
Display aspect ratio                     : 2.40:1
Frame rate mode                          : Constant
Frame rate                               : 23.976 (23976/1000) FPS
Color space                              : YUV
Chroma subsampling                       : 4:2:0
Bit depth                                : 8 bits
Scan type                                : Progressive
Bits/(Pixel*Frame)                       : 0.127
Stream size                              : 3.25 GiB (92%)
Title                                    : In.Darkness.2018.1080p.WEB-DL.DD5.1.H264-FGT
Language                                 : English
Default                                  : Yes
Forced                                   : No
Color range                              : Limited
Color primaries                          : BT.709
Transfer characteristics                 : BT.709
Matrix coefficients                      : BT.709

Audio
ID                                       : 2
Format                                   : AC-3
Format/Info                              : Audio Coding 3
Codec ID                                 : A_AC3
Duration                                 : 1 h 41 min
Bit rate mode                            : Constant
Bit rate                                 : 384 kb/s
Channel(s)                               : 6 channels
Channel positions                        : Front: L C R, Side: L R, LFE
Sampling rate                            : 48.0 kHz
Frame rate                               : 31.250 FPS (1536 SPF)
Bit depth                                : 16 bits
Compression mode                         : Lossy
Delay relative to video                  : -42 ms
Stream size                              : 278 MiB (8%)
Title                                    : In.Darkness.2018.1080p.WEB-DL.DD5.1.H264-FGT
Language                                 : English
Service kind                             : Complete Main
Default                                  : Yes
Forced                                   : No

Text
ID                                       : 3
Format                                   : UTF-8
Codec ID                                 : S_TEXT/UTF8
Codec ID/Info                            : UTF-8 Plain Text
Duration                                 : 1 h 33 min
Bit rate                                 : 38 b/s
Count of elements                        : 828
Stream size                              : 26.4 KiB (0%)
Language                                 : English
Default                                  : Yes
Forced                                   : No

Menu
00:00:00.000                             : en:1
00:06:39.000                             : en:2
00:13:57.000                             : en:3
00:20:44.000                             : en:4
00:27:19.000                             : en:5
00:33:39.000                             : en:6
00:40:12.000                             : en:7
00:46:16.000                             : en:8
00:54:04.000                             : en:9
01:00:00.000                             : en:10
01:06:11.000                             : en:11
01:13:39.000                             : en:12
01:21:07.000                             : en:13
01:26:32.000                             : en:14
01:33:55.000                             : en:15
01:38:09.000                             : en:16



SINGLE DIRECT FAST LINKS
http://www.heroupload.us/d8dbe530c7d63234/In.Darkness.2018.1080p.WEB-DL.DD5.1.H264-FGT.mkv


http://filefloater.com/1jeP/In.Darkness.2018.1080p.WEB-DL.DD5.1.H264-FGT.mkv

1GB LINKS

http://www.heroupload.us/26c55632e7e6a608/In.Darkness.2018.1080p.WEB-DL.DD5.1.H264-FGT.part1.rar
http://www.heroupload.us/c3046cdbcf1a97b9/In.Darkness.2018.1080p.WEB-DL.DD5.1.H264-FGT.part2.rar
http://www.heroupload.us/40c0d474e5446ea8/In.Darkness.2018.1080p.WEB-DL.DD5.1.H264-FGT.part3.rar
http://www.heroupload.us/c144f972ba8b453f/In.Darkness.2018.1080p.WEB-DL.DD5.1.H264-FGT.part4.rar



http://filefloater.com/1jeQ/In.Darkness.2018.1080p.WEB-DL.DD5.1.H264-FGT.part1.rar
http://filefloater.com/1jeR/In.Darkness.2018.1080p.WEB-DL.DD5.1.H264-FGT.part2.rar
http://filefloater.com/1jeS/In.Darkness.2018.1080p.WEB-DL.DD5.1.H264-FGT.part3.rar
http://filefloater.com/1jeT/In.Darkness.2018.1080p.WEB-DL.DD5.1.H264-FGT.part4.rar

шаблоны для dle 11.2