Brand Babu (2018) Telugu - 1080p - HDTV - AVC - AAC-TMV

Brand Babu (2018) Telugu - 1080p - HDTV - AVC - AAC-TMV





Format                      : MPEG-4
Format profile              : Base Media
Codec ID                    : isom (isom/iso2/mp41)
File size                   : 5.38 GiB
Duration                    : 2 h 11 min
Overall bit rate mode       : Variable
Overall bit rate            : 5 837 kb/s
Writing application         : Lavf57.71.100

Video
ID                          : 1
Format                      : MPEG-4 Visual
Format profile              : [email protected]
Format settings, BVOP       : No
Format settings, QPel       : No
Format settings, GMC        : No warppoints
Format settings, Matrix     : Default (H.263)
Codec ID                    : 20
Duration                    : 2 h 11 min
Bit rate mode               : Variable
Bit rate                    : 5 700 kb/s
Maximum bit rate            : 9 000 kb/s
Width                       : 1 920 pixels
Height                      : 1 080 pixels
Display aspect ratio        : 16:9
Frame rate mode             : Constant
Frame rate                  : 25.000 FPS
Color space                 : YUV
Chroma subsampling          : 4:2:0
Bit depth                   : 8 bits
Scan type                   : Progressive
Compression mode            : Lossy
Bits/(Pixel*Frame)          : 0.110
Stream size                 : 5.25 GiB (98%)
Writing library             : Lavc57.89.100

Audio
ID                          : 2
Format                      : AAC
Format/Info                 : Advanced Audio Codec
Format profile              : LC
Codec ID                    : 40
Duration                    : 2 h 11 min
Bit rate mode               : Constant
Bit rate                    : 132 kb/s
Channel(s)                  : 2 channels
Channel positions           : Front: L R
Sampling rate               : 44.1 kHz
Frame rate                  : 43.066 FPS (1024 SPF)
Compression mode            : Lossy
Stream size                 : 123 MiB (2%)
Default                     : Yes
Alternate group             : 1





SINGLE DIRECT FAST LINKS

http://www.heroupload.us/03924efcf392218e/Brand.Babu.2018.Telugu.HDTV.1080p.UNTOUCHED.AVC.AAC-TMV.mp4


1GB LINKS

http://www.heroupload.us/1cd04387c456b7ab/Brand.Babu.2018.Telugu.HDTV.1080p.UNTOUCHED.AVC.AAC-TMV.part1.rar
http://www.heroupload.us/dfa6407a4e5a286c/Brand.Babu.2018.Telugu.HDTV.1080p.UNTOUCHED.AVC.AAC-TMV.part2.rar
http://www.heroupload.us/23ddf86ca3866efa/Brand.Babu.2018.Telugu.HDTV.1080p.UNTOUCHED.AVC.AAC-TMV.part3.rar
http://www.heroupload.us/5ed7166609ce4dd8/Brand.Babu.2018.Telugu.HDTV.1080p.UNTOUCHED.AVC.AAC-TMV.part4.rar
http://www.heroupload.us/9546fa8ccc36e5fd/Brand.Babu.2018.Telugu.HDTV.1080p.UNTOUCHED.AVC.AAC-TMV.part5.rar
http://www.heroupload.us/3d6426efaefd15d6/Brand.Babu.2018.Telugu.HDTV.1080p.UNTOUCHED.AVC.AAC-TMV.part6.rar



http://filefloater.com/2AW1/Brand.Babu.2018.Telugu.HDTV.1080p.UNTOUCHED.AVC.AAC-TMV.part1.rar
http://filefloater.com/2AW2/Brand.Babu.2018.Telugu.HDTV.1080p.UNTOUCHED.AVC.AAC-TMV.part2.rar
http://filefloater.com/2AW3/Brand.Babu.2018.Telugu.HDTV.1080p.UNTOUCHED.AVC.AAC-TMV.part3.rar
http://filefloater.com/2AW4/Brand.Babu.2018.Telugu.HDTV.1080p.UNTOUCHED.AVC.AAC-TMV.part4.rar
http://filefloater.com/2AW5/Brand.Babu.2018.Telugu.HDTV.1080p.UNTOUCHED.AVC.AAC-TMV.part5.rar
http://filefloater.com/2AW6/Brand.Babu.2018.Telugu.HDTV.1080p.UNTOUCHED.AVC.AAC-TMV.part6.rar


Buy Premium From My Links & Support Me
шаблоны для dle 11.2